<?xml version="1.0" standalone="no"?>
<!DOCTYPE svg PUBLIC "-//W3C//DTD SVG 1.1//EN" "http://www.w3.org/Graphics/SVG/1.1/DTD/svg11.dtd" >
<svg xmlns="http://www.w3.org/2000/svg">
<metadata>Generated by IcoMoon</metadata>
<defs>
<font id="icomoon" horiz-adv-x="1024">
<font-face units-per-em="1024" ascent="960" descent="-64" />
<missing-glyph horiz-adv-x="1024" />
<glyph unicode="&#x20;" horiz-adv-x="512" d="" />
<glyph unicode="&#xe900;" glyph-name="arrow-right" d="M0 498.057h768.139l-197.034 219.644 106.281 95.344 346.613-386.38-346.613-386.378-106.281 95.344 197.034 219.643h-768.139v142.783z" />
<glyph unicode="&#xe901;" glyph-name="arrow-down" d="M583.39 938.667v-768.139l219.644 197.034 95.344-106.281-386.38-346.613-386.378 346.613 95.344 106.281 219.643-197.034v768.139h142.783z" />
<glyph unicode="&#xe902;" glyph-name="arrow-left" d="M1024 355.277h-768.139l197.034-219.644-106.281-95.344-346.613 386.38 346.613 386.378 106.281-95.344-197.034-219.643h768.139v-142.783z" />
<glyph unicode="&#xe903;" glyph-name="arrow-up" d="M440.61-85.333v768.139l-219.644-197.034-95.344 106.281 386.38 346.613 386.378-346.613-95.344-106.281-219.643 197.034v-768.139h-142.783z" />
<glyph unicode="&#xe904;" glyph-name="arrow-right-round" d="M0 426.666c0 37.206 30.162 67.369 67.369 67.369h713.924l-183.628 165.542c-27.635 24.913-29.842 67.511-4.926 95.146 24.913 27.635 67.511 29.841 95.146 4.928l313.857-282.949c14.171-12.773 22.259-30.957 22.259-50.036s-8.087-37.263-22.259-50.036l-313.857-282.947c-27.635-24.913-70.233-22.708-95.146 4.926-24.916 27.635-22.708 70.233 4.926 95.146l183.628 165.544h-713.924c-37.207 0-67.369 30.162-67.369 67.369z" />
<glyph unicode="&#xe905;" glyph-name="arrow-down-round" d="M511.999 938.667c37.206 0 67.369-30.162 67.369-67.369v-713.924l165.542 183.628c24.913 27.635 67.511 29.842 95.146 4.926 27.635-24.913 29.841-67.511 4.928-95.146l-282.949-313.857c-12.773-14.171-30.957-22.259-50.036-22.259s-37.263 8.087-50.036 22.259l-282.947 313.857c-24.913 27.635-22.708 70.233 4.926 95.146 27.635 24.916 70.233 22.708 95.146-4.926l165.544-183.628v713.924c0 37.207 30.162 67.369 67.369 67.369z" />
<glyph unicode="&#xe906;" glyph-name="arrow-left-round" d="M1024 426.668c0-37.206-30.162-67.369-67.369-67.369h-713.924l183.628-165.542c27.635-24.913 29.842-67.511 4.926-95.146-24.913-27.635-67.511-29.841-95.146-4.928l-313.857 282.949c-14.171 12.773-22.259 30.957-22.259 50.036s8.087 37.263 22.259 50.036l313.857 282.947c27.635 24.913 70.233 22.708 95.146-4.926 24.916-27.635 22.708-70.233-4.926-95.146l-183.628-165.544h713.924c37.207 0 67.369-30.162 67.369-67.369z" />
<glyph unicode="&#xe907;" glyph-name="arrow-up-round" d="M512.001-85.333c-37.206 0-67.369 30.162-67.369 67.369v713.924l-165.542-183.628c-24.913-27.635-67.511-29.842-95.146-4.926-27.635 24.913-29.841 67.511-4.928 95.146l282.949 313.857c12.773 14.171 30.957 22.259 50.036 22.259s37.263-8.087 50.036-22.259l282.947-313.857c24.913-27.635 22.708-70.233-4.926-95.146-27.635-24.916-70.233-22.708-95.146 4.926l-165.544 183.628v-713.924c0-37.207-30.162-67.369-67.369-67.369z" />
<glyph unicode="&#xe908;" glyph-name="chevron-right" d="M189.131 48.403l378.264 378.264-378.264 378.265 133.736 133.735 512.001-512-512.001-512-133.736 133.736z" />
<glyph unicode="&#xe909;" glyph-name="chevron-down" d="M133.736 749.535l378.264-378.264 378.265 378.264 133.735-133.736-512-512.001-512 512.001 133.736 133.736z" />
<glyph unicode="&#xe90a;" glyph-name="chevron-left" d="M834.868 804.931l-378.264-378.264 378.264-378.265-133.736-133.735-512.001 512 512.001 512 133.736-133.736z" />
<glyph unicode="&#xe90b;" glyph-name="chevron-up" d="M890.264 103.799l-378.264 378.264-378.265-378.264-133.735 133.736 512 512.001 512-512.001-133.736-133.736z" />
<glyph unicode="&#xe90c;" glyph-name="close" d="M0.001 68.496l870.17 870.17 153.829-153.827-870.173-870.171-153.827 153.827zM870.173-85.331l-870.17 870.171 153.826 153.826 870.171-870.17-153.827-153.827z" />
<glyph unicode="&#xe90d;" glyph-name="minus" d="M1024 324.267l-1024 0.001v204.799h1024v-204.799z" />
<glyph unicode="&#xe90e;" glyph-name="plus" d="M614.4 938.667v-1024h-204.8v1024h204.8zM1024 324.267h-1024v204.8h1024v-204.8z" />
<glyph unicode="&#xe90f;" glyph-name="search" d="M426.668 768c-141.385 0-256-114.615-256-256s114.615-256 256-256c141.385 0 256 114.615 256 256s-114.615 256-256 256zM0 511.999c0 235.641 191.025 426.668 426.668 426.668s426.668-191.025 426.668-426.668c0-235.641-191.025-426.668-426.668-426.668s-426.668 191.025-426.668 426.668zM622.328 316.339c33.325 33.324 87.355 33.324 120.68 0l255.999-256.001c33.323-33.323 33.323-87.356 0-120.678s-87.356-33.323-120.678 0l-256.001 255.999c-33.324 33.325-33.324 87.355 0 120.68z" />
<glyph unicode="&#xe910;" glyph-name="switch" d="M416.565 770.237h410.737l-105.357 117.449 56.83 50.982 185.34-206.605-185.34-206.604-56.83 50.982 105.357 117.448h-410.737v76.349zM302.040 693.888c-63.25 0-114.524-51.274-114.524-114.523s51.274-114.524 114.523-114.524h458.095c105.414 0 190.872-85.457 190.872-190.872s-85.457-190.872-190.872-190.872h-190.872v76.349h190.872c63.248 0 114.523 51.276 114.523 114.523 0 63.251-51.276 114.523-114.523 114.523h-458.095c-105.415 0-190.872 85.457-190.872 190.873s85.456 190.872 190.873 190.872h167.381v-76.349h-167.381zM607.436 83.096h-410.741l105.358-117.448-56.832-50.982-185.336 206.603 185.336 206.608 56.832-50.986-105.358-117.448h410.741v-76.349z" />
<glyph unicode="&#xe911;" glyph-name="percent" d="M748.901 836.983c29.24-16.882 39.254-54.271 22.375-83.511l-412.658-714.741c-16.882-29.24-54.271-39.26-83.511-22.382-29.24 16.885-39.259 54.275-22.377 83.515l412.655 714.74c16.885 29.24 54.275 39.259 83.515 22.377zM0 631.203c0 118.173 95.798 213.97 213.97 213.97s213.97-95.798 213.97-213.97c0-118.172-95.798-213.97-213.97-213.97s-213.97 95.798-213.97 213.97zM213.97 722.904c-50.646 0-91.701-41.056-91.701-91.701s41.056-91.701 91.701-91.701c50.646 0 91.701 41.056 91.701 91.701s-41.056 91.701-91.701 91.701zM810.029 436.103c-118.173 0-213.97-95.798-213.97-213.968 0-118.173 95.798-213.97 213.97-213.97s213.97 95.798 213.97 213.97c0 118.171-95.798 213.968-213.97 213.968zM718.328 222.134c0 50.644 41.058 91.7 91.701 91.7s91.701-41.056 91.701-91.7c0-50.65-41.058-91.701-91.701-91.701s-91.701 41.051-91.701 91.701z" />
<glyph unicode="&#xe912;" glyph-name="settings" d="M455.111-85.333v341.333h113.777v-113.777h455.111v-113.777h-455.111v-113.777h-113.777zM0 28.444v113.777h341.333v-113.777h-341.333zM227.556 256v113.777h-227.556v113.777h227.556v113.777h113.777v-341.333h-113.777zM455.111 369.778v113.777h568.889v-113.777h-568.889zM682.667 597.334v341.333h113.777v-113.777h227.556v-113.777h-227.556v-113.777h-113.777zM0 711.111v113.777h568.889v-113.777h-568.889z" />
<glyph unicode="&#xe913;" glyph-name="train" d="M80.844 211.088v512q0 71.41 37.052 113.852t97.683 64.674 138.105 29.642 158.316 7.411q88.926 0 167.747-7.411t137.431-29.642 92.295-64.674 33.684-113.852v-512q0-79.494-54.569-134.063t-134.063-54.569l80.842-80.842v-26.947h-107.789l-107.789 107.789h-215.579l-107.789-107.789h-107.789v26.947l80.842 80.842q-79.494 0-134.063 54.569t-54.569 134.063zM512.002 830.876q-142.822 0-208.841-16.841t-90.275-37.052h603.623q-20.211 22.905-86.905 38.4t-217.6 15.495zM188.633 507.508h269.474v161.684h-269.474v-161.684zM754.528 399.719v0zM565.897 507.508h269.474v161.684h-269.474v-161.684zM323.371 184.14q35.031 0 57.937 22.905t22.905 57.937-22.905 57.937-57.937 22.905-57.937-22.905-22.905-57.937 22.905-57.937 57.937-22.905zM700.633 184.14q35.031 0 57.937 22.905t22.905 57.937-22.905 57.937-57.937 22.905-57.937-22.905-22.905-57.937 22.905-57.937 57.937-22.905zM269.476 130.245h485.054q35.031 0 57.937 22.905t22.905 57.937v188.631h-646.737v-188.631q0-35.031 22.905-57.937t57.937-22.905zM512.002 776.983v0z" />
<glyph unicode="&#xe914;" glyph-name="bus" d="M767.994-85.318c-28.278 0-51.195 22.918-51.195 51.195v51.211c-3.334 0-6.743 0-10.246 0h-389.118c-3.502 0-6.912 0-10.246 0v-51.211c0-28.278-22.918-51.195-51.195-51.195s-51.195 22.918-51.195 51.195v60.289c-6.359 2.059-12.487 4.562-18.541 7.65-29.092 14.807-52.301 38.033-67.124 67.124-16.743 32.855-16.743 67.783-16.743 131.176v501.862c0 1.152 0.046 2.288 0.122 3.41 0.877 14.53 7.911 65.326 62.562 112.16 68.998 59.137 185.719 89.119 346.924 89.119s277.926-29.983 346.924-89.119c54.651-46.848 61.686-97.646 62.562-112.175 0.076-1.121 0.122-2.258 0.122-3.41v-501.862c0-63.391 0-98.321-16.743-131.176-14.823-29.092-38.033-52.301-67.124-67.124-6.051-3.088-12.181-5.591-18.525-7.65v-60.289c0-28.278-22.918-51.195-51.195-51.195zM204.783 324.274v-92.161c0-44.406 0-73.729 5.575-84.679 4.946-9.693 12.672-17.433 22.365-22.365 10.951-5.591 40.29-5.591 84.696-5.591h389.118c44.406 0 73.729 0 84.679 5.575 9.693 4.946 17.433 12.672 22.365 22.365 5.591 10.951 5.591 40.29 5.591 84.696v92.161h-614.391zM204.783 426.681h614.406v256.008h-614.406v-256.008zM249.91 785.079h524.151c-39.4 24.685-115.8 51.195-262.076 51.195s-222.676-26.513-262.076-51.195zM717.306 170.673h-0.506c-28.278 0-51.195 22.918-51.195 51.195s22.918 51.195 51.195 51.195h0.506c28.278 0 51.195-22.918 51.195-51.195s-22.918-51.195-51.195-51.195zM307.696 170.673h-0.506c-28.278 0-51.195 22.918-51.195 51.195s22.918 51.195 51.195 51.195h0.506c28.278 0 51.195-22.918 51.195-51.195s-22.918-51.195-51.195-51.195z" />
<glyph unicode="&#xe915;" glyph-name="info" d="M460.8 170.668h102.4v307.2h-102.4v-307.2zM512 580.267q21.76 0 36.48 14.72t14.72 36.48-14.72 36.48-36.48 14.72-36.48-14.72-14.72-36.48 14.72-36.48 36.48-14.72zM512-85.333q-106.24 0-199.68 40.32t-162.56 109.44-109.44 162.56-40.32 199.68 40.32 199.68 109.44 162.56 162.56 109.44 199.68 40.32 199.68-40.32 162.56-109.44 109.44-162.56 40.32-199.68-40.32-199.68-109.44-162.56-162.56-109.44-199.68-40.32zM512 17.068q171.519 0 290.559 119.040t119.040 290.559-119.040 290.559-290.559 119.040-290.559-119.040-119.040-290.559 119.040-290.559 290.559-119.040z" />
<glyph unicode="&#xe916;" glyph-name="person" d="M511.999 426.668q-105.6 0-180.799 75.199t-75.199 180.799 75.199 180.799 180.799 75.199 180.799-75.199 75.199-180.799-75.199-180.799-180.799-75.199zM0-85.33v179.2q0 54.4 28 100t74.4 69.6q99.199 49.6 201.6 74.4t208 24.799 208-24.799 201.6-74.4q46.399-24 74.4-69.6t28-100v-179.2h-1023.998zM127.999 42.669h767.998v51.199q0 17.599-8.8 31.999t-23.2 22.399q-86.4 43.2-174.4 64.8t-177.6 21.6-177.6-21.6-174.4-64.8q-14.4-7.999-23.2-22.399t-8.8-31.999v-51.199zM511.999 554.668q52.8 0 90.4 37.6t37.6 90.4-37.6 90.4-90.4 37.6-90.4-37.6-37.6-90.4 37.6-90.4 90.4-37.6z" />
<glyph unicode="&#xe917;" glyph-name="location-city" d="M888.73 238.302v108.721h-106.193v-108.721h106.193zM888.73 23.388v106.193h-106.193v-106.193h106.193zM565.095 670.657v106.193h-106.193v-106.193h106.193zM565.095 453.215v108.721h-106.193v-108.721h106.193zM565.095 238.302v108.721h-106.193v-108.721h106.193zM565.095 23.388v106.193h-106.193v-106.193h106.193zM241.461 453.215v108.721h-106.193v-108.721h106.193zM241.461 238.302v108.721h-106.193v-108.721h106.193zM241.461 23.388v106.193h-106.193v-106.193h106.193zM673.816 453.215h323.635v-538.548h-970.903v755.99h323.635v106.193l161.817 161.817 161.817-161.817v-323.635z" />
<glyph unicode="&#xe918;" glyph-name="earth" d="M512 938.667c-282.77 0-512-229.23-512-512s229.23-512 512-512 512 229.23 512 512-229.23 512-512 512zM512-21.335c-62.958 0-122.872 13.012-177.23 36.452l233.148 262.29c5.206 5.858 8.082 13.422 8.082 21.26v96c0 17.674-14.326 32-32 32-112.99 0-232.204 117.462-233.374 118.626-6 6.002-14.14 9.374-22.626 9.374h-128c-17.672 0-32-14.328-32-32v-192c0-12.122 6.848-23.202 17.69-28.622l110.31-55.156v-187.886c-116.052 80.956-192 215.432-192 367.664 0 68.714 15.49 133.806 43.138 192h116.862c8.488 0 16.626 3.372 22.628 9.372l128 128c6 6.002 9.372 14.14 9.372 22.628v77.412c40.562 12.074 83.518 18.588 128 18.588 70.406 0 137.004-16.26 196.282-45.2-4.144-3.502-8.176-7.164-12.046-11.036-36.266-36.264-56.236-84.478-56.236-135.764s19.97-99.5 56.236-135.764c36.434-36.432 85.218-56.264 135.634-56.26 3.166 0 6.342 0.080 9.518 0.236 13.814-51.802 38.752-186.656-8.404-372.334-0.444-1.744-0.696-3.488-0.842-5.224-81.324-83.080-194.7-134.656-320.142-134.656z" />
<glyph unicode="&#xe919;" glyph-name="seat" d="M715.656 454.114h-375.769l-105.202 392.581c-13.024 48.606-62.974 77.44-111.554 64.416-14.712-3.934-27.638-11.266-38.098-20.918-24.142-22.238-35.408-56.766-26.318-90.636l123.286-460.125c11.046-41.176 48.58-68.154 89.342-67.52h444.315c28.542 0 52.124 21.284 55.716 48.874 0.318 2.394 0.488 4.838 0.488 7.332v69.792c0 31.034-25.17 56.204-56.206 56.204zM968.409 104.211h-210.662c-0.174 0-0.35-0.004-0.52-0.002-3.94 0-7.384 2.646-8.414 6.478l-36.654 136.796h3.494c44.466 0 80.642 36.176 80.642 80.642v69.774c0 44.466-36.176 80.642-80.642 80.642h-357.011l-24.142 90.094h252.652c13.496 0 24.438 10.94 24.438 24.436s-10.94 24.436-24.438 24.436h-265.749l-63.106 235.516c-16.488 61.534-79.96 98.186-141.496 81.692-61.53-16.488-98.176-79.96-81.692-141.494l123.288-460.113c13.574-50.658 59.26-85.644 111.502-85.64 0.544 0 1.1 0.004 1.644 0.012h197.522v-283.939h-196.098c-13.496 0-24.436-10.94-24.436-24.436s10.94-24.438 24.436-24.438h441.069c13.496 0 24.438 10.94 24.438 24.438 0 13.496-10.94 24.436-24.438 24.436h-196.096v283.939h143.618l40.042-149.446c6.77-25.256 29.556-42.702 55.608-42.702 0.232 0 0.464 0.002 0.696 0.004h210.498c13.496 0 24.438 10.94 24.438 24.436 0.004 13.496-10.936 24.438-24.432 24.438zM129.451 887.511c5.758 1.542 11.54 2.278 17.236 2.278 29.428 0 56.432-19.666 64.402-49.412l59.716-222.866h-138.016l-50.47 188.362c-9.512 35.5 11.632 72.124 47.132 81.638zM271.356 296.356c-0.128 0-0.256 0-0.384-0.002-30.586-0.388-57.442 19.838-65.366 49.41l-59.72 222.876h138.016l32.384-120.856c2.862-10.684 12.544-18.112 23.604-18.112h375.767c17.516 0 31.768-14.252 31.768-31.768v-69.774c0-17.518-14.252-31.768-31.768-31.768l-444.301-0.006z" />
<glyph unicode="&#xe91a;" glyph-name="couchette" d="M965.117 871.784c-29.982 0-55.353-25.369-55.353-55.351v-182.198h-793.368v249.081c0 29.982-25.369 55.351-55.351 55.351s-55.351-25.369-55.351-55.351v-913.296c0-29.982 25.369-55.353 55.351-55.353s55.351 25.369 55.351 55.353v64.576h791.062v-64.576c0-29.982 25.368-55.353 55.351-55.353s55.351 25.369 55.351 55.353v846.413c2.306 29.982-23.063 55.351-53.043 55.351zM116.398 166.056v332.108h791.062v-334.414h-791.062v2.306zM317.044 285.983c0-43.307-35.107-78.414-78.414-78.414s-78.414 35.107-78.414 78.414c0 43.307 35.107 78.414 78.414 78.414s78.414-35.107 78.414-78.414zM794.449 348.254h-378.234c-39.207 0-71.495-32.288-71.495-69.189 0-39.207 32.288-69.189 71.495-69.189h380.54c39.207 0 71.494 32.29 71.494 69.189-2.303 36.901-34.593 69.189-73.8 69.189zM317.044 754.163c0-43.307-35.107-78.414-78.414-78.414s-78.414 35.107-78.414 78.414c0 43.307 35.107 78.414 78.414 78.414s78.414-35.107 78.414-78.414zM416.217 675.749h380.54c39.207 0 71.494 32.288 71.494 69.189 0 39.207-32.288 69.189-71.494 69.189h-380.54c-39.207 0-71.495-32.288-71.495-69.189-0.002-39.207 32.286-69.189 71.495-69.189z" />
<glyph unicode="&#xe91b;" glyph-name="sleeper" d="M1024 477.867v-460.8h-102.4v153.6h-819.201v-153.6h-102.4v819.201h102.4v-512.001h409.6v358.401h307.2c113.106 0 204.8-91.692 204.8-204.8zM307.199 375.466c-84.83 0-153.6 68.767-153.6 153.6 0 84.83 68.77 153.6 153.6 153.6s153.6-68.77 153.6-153.6c0-84.833-68.77-153.6-153.6-153.6z" />
<glyph unicode="&#xe91c;" glyph-name="instagram" d="M512 147.394c-154.238 0-279.273 125.035-279.273 279.273s125.035 279.273 279.273 279.273c154.238 0 279.273-125.035 279.273-279.273s-125.035-279.273-279.273-279.273zM512 240.485c102.824 0 186.182 83.359 186.182 186.182 0 102.826-83.359 186.182-186.182 186.182-102.826 0-186.182-83.356-186.182-186.182 0-102.824 83.356-186.182 186.182-186.182zM791.273 752.486c-25.707 0-46.546-20.84-46.546-46.546s20.839-46.546 46.546-46.546c25.707 0 46.546 20.84 46.546 46.546s-20.839 46.546-46.546 46.546zM30.439 786.182c26.775 52.549 69.497 95.272 122.047 122.047 59.739 30.439 137.943 30.439 294.35 30.439h130.328c156.407 0 234.612 0 294.349-30.439 52.55-26.775 95.274-69.497 122.047-122.047 30.441-59.739 30.441-137.943 30.441-294.35v-130.328c0-156.407 0-234.612-30.441-294.349-26.773-52.55-69.497-95.274-122.047-122.047-59.736-30.441-137.942-30.441-294.349-30.441h-130.328c-156.407 0-234.611 0-294.35 30.441-52.549 26.773-95.272 69.497-122.047 122.047-30.439 59.736-30.439 137.942-30.439 294.349v130.328c0 156.407 0 234.611 30.439 294.35zM577.163 845.576h-130.328c-79.74 0-133.946-0.073-175.845-3.495-40.813-3.335-61.684-9.379-76.244-16.797-35.032-17.851-63.515-46.332-81.364-81.364-7.418-14.559-13.462-35.431-16.797-76.244-3.423-41.899-3.495-96.105-3.495-175.845v-130.328c0-79.742 0.073-133.944 3.495-175.844 3.335-40.815 9.379-61.687 16.797-76.246 17.851-35.030 46.332-63.512 81.364-81.361 14.559-7.419 35.431-13.465 76.244-16.798 41.899-3.421 96.105-3.495 175.845-3.495h130.328c79.742 0 133.944 0.074 175.844 3.495 40.815 3.333 61.687 9.379 76.246 16.798 35.030 17.851 63.512 46.331 81.361 81.361 7.419 14.559 13.465 35.431 16.798 76.246 3.421 41.901 3.495 96.103 3.495 175.844v130.328c0 79.74-0.074 133.946-3.495 175.845-3.333 40.813-9.379 61.684-16.798 76.244-17.851 35.032-46.331 63.515-81.361 81.364-14.559 7.418-35.431 13.462-76.246 16.797-41.901 3.423-96.103 3.495-175.844 3.495z" />
<glyph unicode="&#xe91d;" glyph-name="linkedin" d="M948.238 938.667h-872.681c-0.273 0-0.58 0-0.922 0-40.937 0-74.157-32.913-74.635-73.714v-876.505c0.478-40.834 33.699-73.782 74.635-73.782 0.341 0 0.649 0 0.99 0h872.51c0.273 0 0.615 0 0.956 0 40.971 0 74.26 32.879 74.909 73.714v876.505c-0.649 40.868-33.938 73.782-74.943 73.782-0.341 0-0.649 0-0.99 0h0.034zM303.697 66.055h-152.070v488.612h152.070zM227.696 621.518c-48.653 0-88.053 39.435-88.053 88.053s39.435 88.053 88.053 88.053c48.619 0 88.053-39.4 88.053-88.019v0c0-0.034 0-0.068 0-0.137 0-48.585-39.4-87.985-87.985-87.985-0.034 0-0.068 0-0.102 0v0zM872.373 66.055h-151.627v237.597c0 56.676-1.161 129.571-79.006 129.571-79.074 0-91.126-61.661-91.126-125.405v-241.797h-151.627v488.612h145.652v-66.612h1.98c28.27 47.629 79.415 79.040 137.901 79.040 2.083 0 4.131-0.034 6.18-0.102h-0.307c153.641 0 182.047-101.13 182.047-232.749v-268.189z" />
<glyph unicode="&#xe91e;" glyph-name="Stuhl" d="M481.81 679.893c-13.828 42.33-59.35 65.434-101.678 51.606s-65.434-59.35-51.606-101.678l87.448-267.686c10.832-33.16 41.759-55.592 76.642-55.592h9.179c0.042 0 0.086 0 0.127 0h205.471l102.856-334.897c13.074-42.567 58.18-66.477 100.749-53.404 42.567 13.074 66.477 58.18 53.401 100.749l-120.349 391.853c-10.396 33.851-41.662 56.956-77.074 56.956h-8.514c-0.047 0-0.096 0-0.142 0h-207.222l-69.287 212.094zM485.796 858.039c0-44.529-36.099-80.628-80.628-80.628s-80.628 36.099-80.628 80.628c0 44.529 36.099 80.628 80.628 80.628s80.628-36.099 80.628-80.628zM213.352 758.001c-13.771 42.346-59.263 65.512-101.61 51.741s-65.512-59.263-51.741-101.61l185.901-571.654c10.799-33.211 41.753-55.693 76.676-55.693h77.61l-19.433-60.989c-13.52-42.427 9.917-87.781 52.345-101.299 42.427-13.52 87.781 9.917 101.299 52.344l35.032 109.944h38.921c44.529 0 80.628 36.099 80.628 80.628s-36.099 80.628-80.628 80.628h-227.21l-167.789 515.961z" />
<glyph unicode="&#xe91f;" glyph-name="Bunk" d="M819.2 306.518c0-37.702-30.564-68.267-68.267-68.267h-286.72c-37.702 0-68.267 30.564-68.267 68.267s30.564 68.267 68.267 68.267h286.72c37.702 0 68.267-30.564 68.267-68.267zM819.2 752.982c0-37.702-30.564-68.267-68.267-68.267h-286.72c-37.702 0-68.267 30.564-68.267 68.267s30.564 68.267 68.267 68.267h286.72c37.702 0 68.267-30.564 68.267-68.267zM150.187 870.4v-240.299h723.627v125.611c0 37.702 30.564 68.267 68.267 68.267s68.267-30.564 68.267-68.267v-772.779c0-37.702-30.564-68.267-68.267-68.267s-68.267 30.564-68.267 68.267v64.171h-723.627v-64.171c0-37.702-30.564-68.267-68.267-68.267s-68.267 30.564-68.267 68.267v887.467c0 37.702 30.564 68.267 68.267 68.267s68.267-30.564 68.267-68.267zM150.187 493.568v-309.931h723.627v309.931h-723.627zM341.333 306.518c0-37.702-30.564-68.267-68.267-68.267s-68.267 30.564-68.267 68.267c0 37.702 30.564 68.267 68.267 68.267s68.267-30.564 68.267-68.267zM341.333 752.982c0-37.702-30.564-68.267-68.267-68.267s-68.267 30.564-68.267 68.267c0 37.702 30.564 68.267 68.267 68.267s68.267-30.564 68.267-68.267z" />
<glyph unicode="&#xe920;" glyph-name="Bett" d="M140.274 686.875c0 38.735-31.402 70.137-70.137 70.137s-70.137-31.402-70.137-70.137v-520.416c0-38.735 31.402-70.137 70.137-70.137s70.137 31.402 70.137 70.137v65.929h743.452v-65.929c0-38.735 31.402-70.137 70.137-70.137s70.137 31.402 70.137 70.137v374.532c0 38.735-31.402 70.137-70.137 70.137h-490.959c-38.735 0-70.137-31.402-70.137-70.137v-168.329h-252.493v314.214zM336.658 498.908c0-38.735-31.402-70.137-70.137-70.137s-70.137 31.402-70.137 70.137c0 38.735 31.402 70.137 70.137 70.137s70.137-31.402 70.137-70.137z" />
</font>
</defs>
</svg>
